Мега распродажа FORZA HORIZON 4 ULTIMATE+ВСЕ DLC+ОНЛАЙН всего за 499р. 349 руб. (супер цена). Внимание количество ограничено!!!

iTunes

1+1

iTunes

мы

iTunes

1

iTunes

Чернобыль

1 сезон

Ральф против интернета

Лицензия

ПШазам

Лицензия

Игра престолов

Лицензия

30
pack

ВАЖНО

!!Акция!!

Alien_RageХит недели

RePack

Resident Evil 21

ИГРА 18+

pack

RePack

Metro:Exodus

!!Акция!!

Alien_Rage

RePack

fifa19

RePack

Assassins Creed: Odyssey

RePack

NEED FOR SPEED™ PAYBACK

3 сезон

9 сезон

Бесстыжие 9 сезон

Все сериалы

все сериалы на PB.wtf

RePack

FAR CRY 5
Ребята, катастрофически не хватает 7730р. для оплаты серверов за ИЮЛЬ (всвязи с блокировками трафик упал в 3 раза), 1-2р., выручайте.
  

Адаптация / Сезон 1 / Серии 1-17 из 17 (Фёдор Стуков) [2017, комедия,WEB-DLRip-AVC] от R.G.Resident piratbit.gq

Адаптация через торрент piratbit.gq

Качают: 1 [ 0 KB/s ]
Размер: 4.87 GB | Добавлен: 2 года 5 мес. назад | Торрент скачан:538 раз
Скачать  

07-02-2017 00:18 Адаптация Скачать торрент  

Адаптация


Год выпуска: 2017

Страна: Россия
Жанр: комедия
Продолжительность: 00:24:25
Перевод: Не требуется [Русский]
Режиссер: Фёдор Стуков
В ролях:

Леонид Бичевин (Эштон Айви / Олег Меньшов), Артур Бесчастный (Валерий Перцов), Евгения Брик (Марина Потеряева), Анастасия Дубровская (Света), Юрий Стоянов (Евгений Геннадьевич (ЕГ) Евдокимов, глава отделения ФСБ по городу Ноябрьску), Александр Ильин (Владимир Николаевич Нагорняк, генеральный директор компании «Газпром добыча ЯНАО»), Александр Назаров (Логунов), Нелли Уварова (Вика, секретарь Владимира Нагорняка), Алексей Базанов (админ), Андрей Бурковский (Рома), Питер Джекобсон (Дойл Брансон, полковник ЦРУ, руководитель операции «Розильда»), Брюс Джонсон (Харрисон, глава ЦРУ)
Описание:
Американского шпиона засылают в Газпром и ставят перед ним нереальную задачу - стать русским. Под видом русского инженера Олега Меньшова он внедряется в региональное подразделение крупной российской газодобывающей компании в городе Ноябрьск, чтобы получить секретную информацию о новейшей разработке российских ученых в области добычи газа. В идеальной подготовке шпиона есть только один пробел: он совершенно не понимает наш менталитет, что ставит под угрозу проведение всей операции. В ходе своей миссии герой знакомится с простым, но только на первый взгляд, кубанским парнем по имени Валера и местной красавицей Мариной, к которой у него постепенно возникают чувства. Американскому шпиону придется разрываться между дружбой, любовью и своей миссией. И с каждым днем выбор будет становиться все сложнее...

Качество: WEB-DLRip-AVC Rip by
Формат: MKV
Видео: AVC, 1024x576 (16:9), 1235 kbps, 25 fps, 0,084 bpp
Аудио: русский / AC3 / 2.0 / 48 kHz / 192 kbps / ||

General
Unique ID : 171325308746043869298439434470038125252 (0x80E40DE250952853BA44EBBD2B373AC4)
Complete name : E:\Адаптация WEB-DLRip-AVC От R.G.Resident\Adaptatsiya.(01.seriya).2017.WEB-DLRip-AVC.by.White Smoke.R.G.Resident.mkv
Format : Matroska
Format version : Version 4 / Version 2
File size : 249 MiB
Duration : 24 min
Overall bit rate : 1 429 kb/s
Movie name : Adaptatsiya.(01.seriya).2017.WEB-DLRip-AVC.by.White Smoke.R.G.Resident.mkv
Encoded date : UTC 2017-02-06 22:27:39
Writing application : mkvmerge v6.8.0 ('Theme for Great Cities') 64bit built on Mar 2 2014 21:34:26
Writing library : libebml v1.3.0 + libmatroska v1.4.1

Video
ID : 1
Format : AVC
Format/Info : Advanced Video Codec
Format profile : High@L4.1
Format settings, CABAC : Yes
Format settings, ReFrames : 12 frames
Codec ID : V_MPEG4/ISO/AVC
Duration : 24 min
Bit rate : 1 235 kb/s
Width : 1 024 pixels
Height : 576 pixels
Display aspect ratio : 16:9
Frame rate mode : Constant
Frame rate : 25.000 FPS
Color space : YUV
Chroma subsampling : 4:2:0
Bit depth : 8 bits
Scan type : Progressive
Bits/(Pixel*Frame) : 0.084
Stream size : 211 MiB (85%)
Writing library : x264 core 148 r2638 7599210
Encoding settings : cabac=1 / ref=12 / deblock=1:-2:-1 / analyse=0x3:0x113 / me=umh / subme=11 / psy=1 / psy_rd=0.00:0.15 / mixed_ref=1 / me_range=32 / chroma_me=1 / trellis=2 / 8x8dct=1 / cqm=0 / deadzone=21,11 / fast_pskip=0 / chroma_qp_offset=-3 / threads=6 / lookahead_threads=1 / sliced_threads=0 / nr=0 / decimate=0 / interlaced=0 / bluray_compat=0 / constrained_intra=0 / bframes=12 / b_pyramid=2 / b_adapt=2 / b_bias=0 / direct=1 / weightb=0 / open_gop=0 / weightp=2 / keyint=250 / keyint_min=25 / scenecut=40 / intra_refresh=0 / rc_lookahead=40 / rc=2pass / mbtree=1 / bitrate=1235 / ratetol=1.0 / qcomp=0.70 / qpmin=0 / qpmax=69 / qpstep=4 / cplxblur=20.0 / qblur=0.5 / vbv_maxrate=50000 / vbv_bufsize=65500 / nal_hrd=none / filler=0 / ip_ratio=1.40 / aq=1:1.00
Default : Yes
Forced : No
Statistics Tags Issue : mkvmerge v7.0.0 ('Where We Going') 32bit built on Jun 9 2014 15:08:34 2017-02-06 22:24:14 / mkvmerge v6.8.0 ('Theme for Great Cities') 64bit built on Mar 2 2014 21:34:26 2017-02-06 22:27:39
FromStats_BitRate : 1234855
FromStats_Duration : 00:24:24.920000000
FromStats_FrameCount : 36623
FromStats_StreamSize : 226120532

Audio
ID : 2
Format : AC-3
Format/Info : Audio Coding 3
Mode extension : CM (complete main)
Format settings, Endianness : Big
Codec ID : A_AC3
Duration : 24 min
Bit rate mode : Constant
Bit rate : 192 kb/s
Channel(s) : 2 channels
Channel positions : Front: L R
Sampling rate : 48.0 kHz
Frame rate : 31.250 FPS (1536 spf)
Compression mode : Lossy
Stream size : 33.5 MiB (13%)
Language : Russian
Default : Yes
Forced : Yes

© Оформление by White Smoke piratbit.gq
!White Smoke писал(а):

Раздача ведётся путём добавления новых серий.



Скачать Адаптация через торрент http://i2.imageban.ru/out/2017/02/07/83056b2f3eb369fe8fa7907cdb6ca73a.jpg Скачать фильм Адаптация через торрент бесплантно в хорошем качестве Описание: Американского шпиона засылают в Газпром и ставят перед ним нереальную задачу - стать русским. Под видом русского инженера Олега ... 9 10 31
× Info от релизера! Добавлена 15-17 серия
Info! Золотая раздача, скачанное не засчитывается.
Торрент: Зарегистрирован [2017-03-08 12:35] · скачан: 538 раз
Статус: √ проверено
Размер: 4.87 GB
Как cкачать? Как скачать Адаптация через торрент | qTorrent



Последний раз редактировалось: White Smoke (2017-03-08 12:35), всего редактировалось 9 раз(а)


>> Регистрируемся здесь <<






Отзывы и комментарии о схеме читаем и пишем здесь: ---> Отзывы и комментарии о схеме

Новые благодарочки в телеграм довольных пользователей:
скриншот   скриншот   скриншот   скриншот   скриншот

10-02-2017 09:39 Адаптация Скачать торрент  

что со звуком в 5 серии?piratbit.gq
!White Smoke писал(а):

исправлено



18-05-2018 14:32 Адаптация Скачать торрент  

Не качает нифига. плюнул .
5 гигов со скоростью 700 килобайт как то очень уж долгоpiratbit.gq



06-02-2019 17:28 Адаптация Скачать торрент  

хорошоpiratbit.gq



    Дорогой пользователь! Огромная просьба, поблагодарите релизера, оцените раздачу и оставьте свои комментарий, если Вы скачали Адаптация через торрент бесплатно! Внесите свою лепту в развитие PiratBit!
    Комментировать посты могут только пользователи прошедшие не сложную регистрацию
    Показать сообщения:    

    Адаптация через торрент
    Скачать бесплатно Адаптация
    Адаптация скачать торрент
    Адаптация смотреть онлайн
    Cкачать фильм Адаптация бесплатно
    Адаптация скачать торрент в хорошем качестве
    Адаптация смотреть онлайн бесплатно в хорошем качестве


    Вы не можете начинать темы
    Вы не можете отвечать на сообщения
    Вы не можете редактировать свои сообщения
    Вы не можете удалять свои сообщения
    Вы не можете голосовать в опросах
    Вы не можете прикреплять файлы к сообщениям
    Вы можете скачивать файлы