MEGA SALE -50% FORZA HORIZON 4 ULTIMATE+ВСЕ DLC+ОНЛАЙН всего за 599р. 299 руб. (супер цена). Внимание количество ограничено!!!

iTunes

1+1

iTunes

мы

iTunes

1

iTunes

Чернобыль

iTunes

Ральф против интернета

Лицензия

ПШазам

Лицензия

Игра престолов

Лицензия

30
pack

ВАЖНО

!!Акция!!

Alien_RageХит недели

RePack

Resident Evil 21

ИГРА 18+

pack

RePack

Metro:Exodus

!!Акция!!

Alien_Rage

RePack

fifa19

RePack

Assassins Creed: Odyssey

RePack

NEED FOR SPEED™ PAYBACK

3 сезон

9 сезон

Бесстыжие 9 сезон

Все сериалы

все сериалы на PB.wtf

RePack

FAR CRY 5
Ребята, катастрофически не хватает 7730р. для оплаты серверов за ИЮЛЬ (всвязи с блокировками трафик упал в 3 раза), 1-2р., выручайте.
  

Вистинг / Wisting / Сезон: 1 / Серии: 1-10 из 10 (Тригве Аллистер Дайсен, Катарина Лаунинг) [2019, Криминал, детектив, WEB-DL 1080p] MVO [TVShows] piratbit.gq

Вистинг через торрент piratbit.gq

Качают: 1 [ 0 KB/s ]
Размер: 17.44 GB | Добавлен: 9 д. назад | Торрент скачан:10 раз
Скачать  

14-06-2019 12:55 Вистинг Скачать торрент  

Вистинг / Wisting Год выпуска: 2019
Страна: Норвегия
Жанр: криминал, детектив
Продолжительность: ~ 00:54:00
Перевод: Профессиональный (многоголосый закадровый) | TVShows
Субтитры: нет

Режиссёр: Тригве Аллистер Дайсен, Катарина Лаунинг)

В ролях: Свен Нордин, Кэрри-Энн Мосс, Мэдс Оусдаль, Гард Б. Эйдсвольд, Ларс Берге, Ульрикке Хансен Дёвиген, Ирина Эйдсвольд Тойен, Хьерсти Сандал, Хайди Голдман, Даниэль Фрикстад

Описание: В центре сюжета сериала, основанного на детективных романах Йорна Хорста, оказывается Уильям Вистинг — дотошный и честолюбивый полицейский, который занимается охотой на самых известных преступников Норвегии. Однажды во время расследования убийства, совершенного на рождественской ярмарке, детектив получает доказательства того, что в преступлении замешан известный американский серийный убийца. Для Вистинга становится делом чести арестовать неуловимого психопата, однако масштабные розыскные мероприятия не приносят результат...

rating


Качество: WEB-DL 1080p
Контейнер: MKV

Видео: H.264/AVC, 1920x1080 (16:9), 23,976 кадров/сек, ~4808 Кбит/сек, ~0.181 bit/pixel
Аудио Rus: AC3, 48 kHz, 3/2 (L,C,R,l,r) + LFE ch, 384 Кбит/сек
Аудио Eng: AC3, 48 kHz, 3/2 (L,C,R,l,r) + LFE ch, 384 Кбит/сек


Реклама: Отсутствует
General
Unique ID : 129982715959132767991238410983146654150 (0x61C9C2AF97FDA631BF86D22E827E09C6)
Complete name : F:\Wisting.S01.1080p.TVShows\Wisting.S01E01.1080p.TVShows.mkv
Format : Matroska
Format version : Version 4 / Version 2
File size : 1.65 GiB
Duration : 42 min 26 s
Overall bit rate mode : Variable
Overall bit rate : 5 578 kb/s
Encoded date : UTC 2019-06-13 14:47:04
Writing application : mkvmerge v33.1.0 ('Primrose') 64-bit
Writing library : libebml v1.3.7 + libmatroska v1.5.0

Video
ID : 1
Format : AVC
Format/Info : Advanced Video Codec
Format profile : High@L4.1
Format settings : CABAC / 2 Ref Frames
Format settings, CABAC : Yes
Format settings, ReFrames : 2 frames
Format settings, GOP : M=3, N=50
Codec ID : V_MPEG4/ISO/AVC
Duration : 42 min 26 s
Bit rate mode : Variable
Bit rate : 4 808 kb/s
Maximum bit rate : 7 200 kb/s
Width : 1 920 pixels
Height : 1 080 pixels
Display aspect ratio : 16:9
Frame rate mode : Constant
Frame rate : 25.000 FPS
Color space : YUV
Chroma subsampling : 4:2:0
Bit depth : 8 bits
Scan type : Progressive
Bits/(Pixel*Frame) : 0.093
Stream size : 1.42 GiB (86%)
Default : Yes
Forced : No

Audio #1
ID : 2
Format : AC-3
Format/Info : Audio Coding 3
Codec ID : A_AC3
Duration : 42 min 26 s
Bit rate mode : Constant
Bit rate : 384 kb/s
Channel(s) : 6 channels
Channel positions : Front: L C R, Side: L R, LFE
Sampling rate : 48.0 kHz
Frame rate : 31.250 FPS (1536 SPF)
Bit depth : 16 bits
Compression mode : Lossy
Stream size : 117 MiB (7%)
Title : TVShows
Language : Russian
Service kind : Complete Main
Default : Yes
Forced : Yes

Audio #2
ID : 3
Format : AC-3
Format/Info : Audio Coding 3
Codec ID : A_AC3
Duration : 42 min 26 s
Bit rate mode : Constant
Bit rate : 384 kb/s
Channel(s) : 6 channels
Channel positions : Front: L C R, Side: L R, LFE
Sampling rate : 48.0 kHz
Frame rate : 31.250 FPS (1536 SPF)
Bit depth : 16 bits
Compression mode : Lossy
Stream size : 117 MiB (7%)
Title : Original
Language : Norwegian
Service kind : Complete Main
Default : No
Forced : No
Внимание! Раздача ведётся путём добавления новых серий; при каждом добавлении создаётся новый торрент. Чтобы начать докачку новой серии, пользователям необходимо сделать следующее:
(1) остановить скачивание,
(2) удалить старый торрент у себя из клиента (старые серии удалять не надо),
(3) скачать новый торрент и запустить его у себя в клиенте вместо старого, при этом указать клиенту путь в старую папку куда и должно происходить скачивание новых серий.

Ваш клиент при этом должен произвести хеширование (проверку) старой папки (если не производит сам - помогите ему сделать это), и будет докачивать только те серии которых у вас ещё нет. Старые серии при этом не удаляются, а продолжают раздаваться!

Eсли вы уже удалили старые серии, то предотвратить повторную закачку старых серий можно, отжав галочку в соответствующих местах при запуске нового торрента. По возможности, желательно не удалять старые серии как можно дольше чтобы релизёр не столько продолжал раздавать старые серии, а смог сконцентрироваться на новых.
piratbit.gq



Скачать Вистинг через торрент https://i106.fastpic.ru/big/2019/0614/99/2cb79f24b932d412e70eb17e0ca68799.jpg Скачать фильм Вистинг через торрент бесплантно в хорошем качестве Описание: В центре сюжета сериала, основанного на детективных романах Йорна Хорста, оказывается Уильям Вистинг — дотошный и честолюбивый ... 8 10 5
Торрент: Зарегистрирован [2019-08-16 12:40] · скачан: 10 раз
Статус: √ проверено
Размер: 17.44 GB
Как cкачать? Как скачать Вистинг через торрент | qTorrent

% Раздел Тема Автор DL S | L
Зарубежные сериалы [ 7.07 GB ] Вистинг / Wisting / Сезон: 1 / Серии: 1-10 из 10 [2019 WEBRip 720p] [MVO] killermax2013 Скачать
49 | 10


>> Регистрируемся здесь <<






Отзывы и комментарии о схеме читаем и пишем здесь: ---> Отзывы и комментарии о схеме

Новые благодарочки в телеграм довольных пользователей:
скриншот   скриншот   скриншот   скриншот   скриншот
    Дорогой пользователь! Огромная просьба, поблагодарите релизера, оцените раздачу и оставьте свои комментарий, если Вы скачали Вистинг через торрент бесплатно! Внесите свою лепту в развитие PiratBit!
    Комментировать посты могут только пользователи прошедшие не сложную регистрацию
    Показать сообщения:    

    Вистинг через торрент
    Скачать бесплатно Вистинг
    Вистинг скачать торрент
    Вистинг смотреть онлайн
    Cкачать фильм Вистинг бесплатно
    Вистинг скачать торрент в хорошем качестве
    Вистинг смотреть онлайн бесплатно в хорошем качестве


    Вы не можете начинать темы
    Вы не можете отвечать на сообщения
    Вы не можете редактировать свои сообщения
    Вы не можете удалять свои сообщения
    Вы не можете голосовать в опросах
    Вы не можете прикреплять файлы к сообщениям
    Вы можете скачивать файлы