MEGA SALE -50% FORZA HORIZON 4 ULTIMATE+ВСЕ DLC+ОНЛАЙН всего за 599р. 299 руб. (супер цена). Внимание количество ограничено!!!

iTunes

1+1

iTunes

мы

iTunes

1

iTunes

Чернобыль

iTunes

Ральф против интернета

Лицензия

ПШазам

Лицензия

Игра престолов

Лицензия

30
pack

ВАЖНО

!!Акция!!

Alien_RageХит недели

RePack

Resident Evil 21

ИГРА 18+

pack

RePack

Metro:Exodus

!!Акция!!

Alien_Rage

RePack

fifa19

RePack

Assassins Creed: Odyssey

RePack

NEED FOR SPEED™ PAYBACK

3 сезон

9 сезон

Бесстыжие 9 сезон

Все сериалы

все сериалы на PB.wtf

RePack

FAR CRY 5
Ребята, катастрофически не хватает 7730р. для оплаты серверов за АВГУСТ (всвязи с блокировками трафик упал в 3 раза), 1-2р., выручайте.
  

Форс-мажоры / Костюмы / Suits / Сезон: 9 / Серия: 1-8 из 10 (Антон Кроппер, Майкл Смит, Крис Мисиано) [2019, Драма, комедия, WEB-DLRip] DVO [NewStudio] piratbit.gq

Форс-мажоры через торрент piratbit.gq

Качают: 1 [ 0 KB/s ]
Размер: 4.82 GB | Добавлен: 10 ч. назад | Торрент скачан:0 раз
Скачать  

22-07-2019 07:46 Форс-мажоры Скачать торрент  

Форс-мажоры | Костюмы | Suits
Год выпуска: 2019
Страна: США
Жанр: Драма, комедия
Продолжительность: ~ 00:45:00
Перевод: Профессиональный (двухголосый закадровый) | NewStudio
Субтитры: отсутствуют

Режиссёр: Антон Кроппер, Майкл Смит, Крис Мисиано

В ролях: Гэбриел Махт, Рик Хоффман, Кэтрин Хайгл, Сара Рафферти, Аманда Шулл, Кристен Буш, Джули Энн Эмери, Хлоя Кмарада, Лейн Ретмер, Джасинда Бэрретт, Джина Торрес и др.

Описание: После ухода Майка и Рэйчел объединённую фирму ждёт ряд потрясений, связанных как с борьбой двух главных партнёров – Харви и Роберта – за управление, так и с конфликтами между старыми и новыми сотрудниками.




Качество: WEB-DLRip
Формат: AVI

Видео: 720x400 at 23.976 fps, XviD, ~1 600 kbps avg
Аудио Rus: AC3, 48,0 kHz, 2 ch, 192 Кбит/сек | NewStudio
Аудио Eng: nAC3, 48,0 kHz, 2 ch, 192 Кбит/сек

Общее
Полное имя : E:\Suits (Season 9) WEB-DLRip NewStudio\Suits.S09E01.WEB-DLRip.RGzsRutracker.[Wentworth_Miller].avi
Формат : AVI
Формат/Информация : Audio Video Interleave
Размер файла : 633 Мбайт
Продолжительность : 44 м. 17 с.
Общий поток : 1998 Кбит/сек
Название фильма : Suits 09x01 (Everythings Changed) - Release by Wentworth_Miller
Программа кодирования : VirtualDubMod 1.5.10.3 | www.virtualdub-fr.org || (build 2550/release)

Видео
Идентификатор : 0
Формат : MPEG-4 Visual
Профиль формата : Advanced Simple@L5
Настройки формата : BVOP1
Параметр BVOP формата : 1
Параметр QPel формата : Нет
Параметр GMC формата : Без точки перехода
Параметр матрицы формата : Default (MPEG)
Идентификатор кодека : XVID
Идентификатор кодека/Подсказка : XviD
Продолжительность : 44 м. 17 с.
Битрейт : 1600 Кбит/сек
Ширина : 720 пикселей
Высота : 400 пикселей
Соотношение сторон : 16:9
Частота кадров : 23,976 (24000/1001) кадра/сек
Цветовое пространство : YUV
Субдискретизация насыщенности : 4:2:0
Битовая глубина : 8 бит
Тип развёртки : Прогрессивная
Метод сжатия : С потерями
Бит/(Пиксели*Кадры) : 0.232
Размер потока : 507 Мбайт (80%)
Библиотека кодирования : XviD 67

Аудио #1
Идентификатор : 1
Формат : AC-3
Формат/Информация : Audio Coding 3
Коммерческое название : Dolby Digital
Идентификатор кодека : 2000
Продолжительность : 44 м. 17 с.
Вид битрейта : Постоянный
Битрейт : 192 Кбит/сек
Каналы : 2 канала
ChannelLayout : L R
Частота : 48,0 КГц
Частота кадров : 31,250 кадров/сек (1536 SPF)
Битовая глубина : 16 бит
Метод сжатия : С потерями
Размер потока : 60,8 Мбайт (10%)
Выравнивание : Разделение по промежуткам
Продолжительность промежутка : 42 мс. (1,00 видеокадр)
Время предзагрузки промежутка : 500 мс.
ServiceKind/String : Complete Main

Аудио #2
Идентификатор : 2
Формат : AC-3
Формат/Информация : Audio Coding 3
Коммерческое название : Dolby Digital
Идентификатор кодека : 2000
Продолжительность : 44 м. 17 с.
Вид битрейта : Постоянный
Битрейт : 192 Кбит/сек
Каналы : 2 канала
ChannelLayout : L R
Частота : 48,0 КГц
Частота кадров : 31,250 кадров/сек (1536 SPF)
Битовая глубина : 16 бит
Метод сжатия : С потерями
Размер потока : 60,8 Мбайт (10%)
Выравнивание : Разделение по промежуткам
Продолжительность промежутка : 42 мс. (1,00 видеокадр)
Время предзагрузки промежутка : 500 мс.
ServiceKind/String : Complete Main

Когда раздача ведётся путём добавления новых серий, при каждом добавлении создётся новый торрент. Чтобы начать докачку новой серии, пользователям необходимо сделать следующее:
(1) остановить скачивание,
(2) удалить старый торрент у себя из клиента (старые серии удалять не надо),
(3) скачать новый торрент и запустить его у себя в клиенте вместо старого, при этом указать клиенту путь в старую папку, куда и должно происходить скачивание новых серий.
Ваш клиент при этом должен произвести хеширование (проверку) старой папки (если не производит сам - помогите ему сделать это), и будет докачивать только те серии, которых у вас ещё нет. Старые серии при этом не удаляются, а продолжают раздаваться!
Eсли вы уже удалили старые серии, то предотвратить повторную закачку старых серий можно, отжав галочку в соответсвующих местах при запуске нового торрента. По возможности, желательно не удалять старые серии как можно дольше, чтобы релизер не столько продолжал раздавать старые серии, а смог сконцентрироваться на новых.
piratbit.gq



Скачать Форс-мажоры через торрент http://pic1.kartinco.top/images/12/5tx1n.jpg Скачать фильм Форс-мажоры через торрент бесплантно в хорошем качестве Описание: После ухода Майка и Рэйчел объединённую фирму ждёт ряд потрясений, связанных как с борьбой двух главных партнёров – Харви и ... 10 10 5
Торрент: Зарегистрирован [2019-09-16 06:42] · скачан: 0 раз
Статус: √ проверено
Размер: 4.82 GB
Как cкачать? Как скачать Форс-мажоры через торрент | qTorrent

% Раздел Тема Автор DL S | L
Зарубежные сериалы [ 20.51 GB ] Форс-мажоры / Костюмы / Suits / Сезон: 9 / Серии: 1-8 из 10 [2019 WEB-DL 1080p] MVO [TVShows] bober100 Скачать
2 | 0
Зарубежные сериалы [ 20.34 GB ] Форс-мажоры / Костюмы / Suits / Сезон: 9 / Серия: 1-8 из 10 [2019 WEB-DL 1080p] DVO [NewStudio] bober100 Скачать
1 | 5


>> Регистрируемся здесь <<






Отзывы и комментарии о схеме читаем и пишем здесь: ---> Отзывы и комментарии о схеме

Новые благодарочки в телеграм довольных пользователей:
скриншот   скриншот   скриншот   скриншот   скриншот
    Дорогой пользователь! Огромная просьба, поблагодарите релизера, оцените раздачу и оставьте свои комментарий, если Вы скачали Форс-мажоры через торрент бесплатно! Внесите свою лепту в развитие PiratBit!
    Комментировать посты могут только пользователи прошедшие не сложную регистрацию
    Показать сообщения:    

    Форс-мажоры через торрент
    Скачать бесплатно Форс-мажоры
    Форс-мажоры скачать торрент
    Форс-мажоры смотреть онлайн
    Cкачать фильм Форс-мажоры бесплатно
    Форс-мажоры скачать торрент в хорошем качестве
    Форс-мажоры смотреть онлайн бесплатно в хорошем качестве


    Вы не можете начинать темы
    Вы не можете отвечать на сообщения
    Вы не можете редактировать свои сообщения
    Вы не можете удалять свои сообщения
    Вы не можете голосовать в опросах
    Вы не можете прикреплять файлы к сообщениям
    Вы можете скачивать файлы