MEGA SALE -50% FORZA HORIZON 4 ULTIMATE+ВСЕ DLC+ОНЛАЙН всего за 599р. 299 руб. (супер цена). Внимание количество ограничено!!!

iTunes

1+1

iTunes

мы

iTunes

1

iTunes

Чернобыль

1 сезон

Ральф против интернета

Лицензия

ПШазам

Лицензия

Игра престолов

Лицензия

30
pack

ВАЖНО

!!Акция!!

Alien_RageХит недели

RePack

Resident Evil 21

ИГРА 18+

pack

RePack

Metro:Exodus

!!Акция!!

Alien_Rage

RePack

fifa19

RePack

Assassins Creed: Odyssey

RePack

NEED FOR SPEED™ PAYBACK

3 сезон

9 сезон

Бесстыжие 9 сезон

Все сериалы

все сериалы на PB.wtf

RePack

FAR CRY 5
Ребята, катастрофически не хватает 7730р. для оплаты серверов за ИЮЛЬ (всвязи с блокировками трафик упал в 3 раза), 1-2р., выручайте.
  

Мстители: Финал / Avengers: Endgame (Энтони Руссо, Джо Руссо) [2019, фантастика, BDRip - HEVC 1080p 10 bit 60 FPS] Дубляж - [Лицензия / iTunes] piratbit.gq

Мстители: Финал через торрент piratbit.gq

Раздают: 68 [ 4 MB/s ] Качают: 2 [ 93 KB/s ]
Размер: 6.37 GB | Добавлен: 15 д. назад | Торрент скачан:630 раз
Скачать  

07-08-2019 15:39 Мстители: Финал Скачать торрент  

Мстители: Финал / Avengers: Endgame
««Avenge the fallen»»

Год выпуска: 2019
Страна: США
Жанр: фантастика,
Продолжительность: 03:01:32
Перевод: Дубляж - [Лицензия / iTunes]
Субтитры: русские (Full (Ruf)),
Субтитры:английские (Full).
Режиссер: Энтони Руссо, Джо Руссо
В ролях:

Роберт Дауни мл. (Tony Stark / Iron Man), Крис Эванс (Steve Rogers / Captain America), Марк Руффало (Bruce Banner / Hulk), Крис Хемсворт (Thor), Скарлетт Йоханссон (Natasha Romanoff / Black Widow), Джереми Реннер (Clint Barton / Hawkeye), Дон Чидл (James Rhodes / War Machine), Пол Радд (Scott Lang / Ant-Man), Бри Ларсон (Carol Danvers / Captain Marvel), Карен Гиллан (Nebula), Бенедикт Камбербэтч (Doctor Strange), Чедвик Боузман (T'Challa / Black Panther)
Описание:
Оставшиеся в живых члены команды Мстителей и их союзники должны разработать новый план, который поможет противостоять разрушительным действиям могущественного титана Таноса. После наиболее масштабной и трагической битвы в истории они не могут допустить ошибку.
Мировая премьера: 22 апреля 2019

Качество: BDRip 1080p Rip by DD2D3
Исходник: BDRemux by seleZen
Формат: MKV
Видео: V_MPEGH/ISO/HEVC, 1920x800 (2.40:1), 4003 kbps, 59,940 fps, 0,043 bpp
Аудио №1: русский / AC3 / 5.1 / 48 kHz / 384 kbps / ||
Аудио №2: английский / AC3 / 5.1 / 48 kHz / 640 kbps /
Навигация по главам: есть



Общее
Уникальный идентификатор: 200858572839658330502051238040506955431 (0x971BF4397793815583984BE455BF76A7)
Полное имя : D:\Мстители Финал - Avengers Endgame (2019) BDRip - HEVC 1080p 10 bit 60 FPS.mkv
Формат : Matroska
Версия формата : Version 4
Размер файла : 6,37 Гбайт
Продолжительность : 3 ч. 1 м.
Общий поток : 5023 Кбит/сек
Название фильма : Rip by DD2D3
Дата кодирования : UTC 2019-08-07 15:05:14
Программа кодирования : mkvmerge v10.0.0 ('To Drown In You') 32bit
Библиотека кодирования : libebml v1.3.4 + libmatroska v1.4.5
Attachments : poster

Видео
Идентификатор : 1
Формат : HEVC
Формат/Информация : High Efficiency Video Coding
Профиль формата : Main 10@L4.1@Main
Идентификатор кодека : V_MPEGH/ISO/HEVC
Продолжительность : 3 ч. 1 м.
Битрейт : 4004 Кбит/сек
Ширина : 1920 пикселей
Высота : 800 пикселей
Соотношение сторон : 2,40:1
Режим частоты кадров : Постоянный
Частота кадров : 59,940 (60000/1001) кадров/сек
Цветовое пространство : YUV
Субдискретизация насыщенности : 4:2:0
Битовая глубина : 10 бит
Бит/(Пиксели*Кадры) : 0.043
Размер потока : 5,07 Гбайт (80%)
Библиотека кодирования : x265 2.3+33-0b7d54dbb71a87a0:[Windows][MSVC 1800][64 bit] 10bit: KG7x [x265.ru]
Настройки программы : cpuid=1173503 / frame-threads=2 / numa-pools=4 / wpp / no-pmode / no-pme / no-psnr / no-ssim / log-level=2 / input-csp=1 / input-res=1920x800 / interlace=0 / total-frames=651626 / level-idc=41 / high-tier=1 / uhd-bd=0 / ref=3 / no-allow-non-conformance / no-repeat-headers / annexb / no-aud / no-hrd / info / hash=0 / no-temporal-layers / open-gop / min-keyint=25 / keyint=250 / bframes=4 / b-adapt=2 / b-pyramid / bframe-bias=0 / rc-lookahead=20 / lookahead-slices=5 / scenecut=40 / no-intra-refresh / ctu=64 / min-cu-size=8 / no-rect / no-amp / max-tu-size=32 / tu-inter-depth=1 / tu-intra-depth=1 / limit-tu=0 / rdoq-level=0 / dynamic-rd=0.00 / no-ssim-rd / signhide / no-tskip / nr-intra=0 / nr-inter=0 / no-constrained-intra / strong-intra-smoothing / max-merge=2 / limit-refs=3 / no-limit-modes / me=1 / subme=2 / merange=57 / temporal-mvp / weightp / no-weightb / no-analyze-src-pics / deblock=0:0 / no-sao / no-sao-non-deblock / rd=3 / no-early-skip / no-rskip / no-fast-intra / no-tskip-fast / no-cu-lossless / no-b-intra / rdpenalty=0 / psy-rd=4.00 / psy-rdoq=0.00 / no-rd-refine / analysis-mode=0 / no-lossless / cbqpoffs=0 / crqpoffs=0 / rc=abr / bitrate=4000 / qcomp=0.60 / qpstep=1 / stats-write=0 / stats-read=2 / cplxblur=20.0 / qblur=0.5 / ipratio=1.10 / pbratio=1.00 / aq-mode=0 / aq-strength=0.00 / no-cutree / zone-count=0 / no-strict-cbr / qg-size=64 / rc-grain / qpmax=69 / qpmin=0 / sar=1 / overscan=0 / videoformat=5 / range=0 / colorprim=2 / transfer=2 / colormatrix=2 / chromaloc=0 / display-window=0 / max-cll=0,0 / min-luma=0 / max-luma=1023 / log2-max-poc-lsb=8 / vui-timing-info / vui-hrd-info / slices=1 / opt-qp-pps / opt-ref-list-length-pps / no-multi-pass-opt-rps / scenecut-bias=0.05 / no-opt-cu-delta-qp / no-aq-motion / no-hdr / no-hdr-opt / refine-level=5 / no-limit-sao
Default : Да
Forced : Нет

Аудио #1
Идентификатор : 2
Формат : AC-3
Формат/Информация : Audio Coding 3
Коммерческое название : Dolby Digital
Идентификатор кодека : A_AC3
Продолжительность : 3 ч. 1 м.
Вид битрейта : Постоянный
Битрейт : 384 Кбит/сек
Каналы : 6 каналов
Channel layout : L R C LFE Ls Rs
Частота : 48,0 КГц
Частота кадров : 31,250 кадров/сек (1536 SPF)
Битовая глубина : 16 бит
Метод сжатия : С потерями
Размер потока : 499 Мбайт (8%)
Заголовок : iTunes
Язык : Russian
ServiceKind/String : Complete Main
Default : Да
Forced : Да

Аудио #2
Идентификатор : 3
Формат : AC-3
Формат/Информация : Audio Coding 3
Коммерческое название : Dolby Digital
Идентификатор кодека : A_AC3
Продолжительность : 3 ч. 1 м.
Вид битрейта : Постоянный
Битрейт : 640 Кбит/сек
Каналы : 6 каналов
Channel layout : L R C LFE Ls Rs
Частота : 48,0 КГц
Частота кадров : 31,250 кадров/сек (1536 SPF)
Битовая глубина : 16 бит
Метод сжатия : С потерями
Размер потока : 829 Мбайт (13%)
Заголовок : Original
Язык : English
ServiceKind/String : Complete Main
Default : Нет
Forced : Нет

Текст #1
Идентификатор : 4
Формат : UTF-8
Идентификатор кодека : S_TEXT/UTF8
Идентификатор кодека/Информация : UTF-8 Plain Text
Продолжительность : 2 ч. 49 м.
Битрейт : 80 бит/сек
ElementCount : 2222
Размер потока : 100 Кбайт (0%)
Заголовок : Full (Ruf)
Язык : Russian
Default : Нет
Forced : Нет

Текст #2
Идентификатор : 5
Формат : UTF-8
Идентификатор кодека : S_TEXT/UTF8
Идентификатор кодека/Информация : UTF-8 Plain Text
Продолжительность : 2 ч. 47 м.
Битрейт : 49 бит/сек
ElementCount : 2329
Размер потока : 61,1 Кбайт (0%)
Заголовок : Full
Язык : English
Default : Нет
Forced : Нет

Меню
00:00:00.000 : en:Chapter 01
00:08:05.902 : en:Chapter 02
00:20:01.700 : en:Chapter 03
00:26:15.282 : en:Chapter 04
00:36:57.173 : en:Chapter 05
00:43:20.598 : en:Chapter 06
00:48:44.171 : en:Chapter 07
00:57:36.745 : en:Chapter 08
01:07:12.612 : en:Chapter 09
01:16:02.516 : en:Chapter 10
01:26:25.430 : en:Chapter 11
01:32:20.118 : en:Chapter 12
01:38:55.805 : en:Chapter 13
01:48:12.361 : en:Chapter 14
01:57:26.915 : en:Chapter 15
02:05:00.243 : en:Chapter 16
02:15:06.432 : en:Chapter 17
02:25:50.450 : en:Chapter 18
02:34:37.935 : en:Chapter 19
02:43:03.899 : en:Chapter 20
02:49:05.344 : en:Chapter 21
скриншот  скриншот  скриншот  скриншот  скриншот  

© Оформление by DD2D3 piratbit.gq



Скачать Мстители: Финал через торрент https://funkyimg.com/i/2W4iT.jpg Скачать фильм Мстители: Финал через торрент бесплантно в хорошем качестве Описание: Оставшиеся в живых члены команды Мстителей и их союзники должны разработать новый план, который поможет противостоять ... 10 10 20
Info! Золотая раздача, скачанное не засчитывается.
Торрент: Зарегистрирован [2019-08-07 15:39] · скачан: 630 раз
Статус: √ проверено
Размер: 6.37 GB
Как cкачать? Как скачать Мстители: Финал через торрент | qTorrent

% Раздел Тема Автор DL S | L
Фильмы [HD 720p, 1080p] (Хороший звук DUB, MVO) [ 8.28 GB ] Мстители: Финал / Avengers: Endgame [2019 BDRip 1080p HEVC] + MVO [HDrezka Studio] sheker187 Скачать
35 | 1
Фильмы [HD 720p, 1080p] (Хороший звук DUB, MVO) [ 17.52 GB ] Мстители: Финал / Avengers: Endgame [2019 BDRip 1080p] +MVO [HDRezka Studio] bober100 Скачать
54 | 0
Фильмы (Blu-ray, BD-Remux, HDDVD) [ 36.52 GB ] Мстители: Финал / Avengers: Endgame [2019 BD Remux 1080p] +MVO [HDRezka Studio] bober100 Скачать
16 | 0
Фильмы 2019 [DVDrip, WEB-DLRip, HDrip] (DUB, MVO) [ 2.18 GB ] Мстители: Финал / Avengers: Endgame [2019 BDRip] - Twi7ter Скачать
478 | 22
Фильмы 2019 [DVDrip, WEB-DLRip, HDrip] (DUB, MVO) [ 1.46 GB ] Мстители: Финал / Avengers: Endgame [2019 BDRip] - Twi7ter Скачать
278 | 21
Ultra HD (UHD: 2K, 4K, 8K) — видео сверхвысокой чёткости [ 53.32 GB ] Мстители: Финал / Avengers: Endgame [2019 UHD BDRemux 2160p] +MVO [HDRezka Studio] bober100 Скачать
24 | 0
# Ultra HD (UHD: 2K, 4K, 8K) — видео сверхвысокой чёткости [ 32.34 GB ] Мстители: Финал / Avengers: Endgame [2019 UHD WEB-DL 2160p] sheker187 Скачать
11 | 0


>> Регистрируемся здесь <<






Отзывы и комментарии о схеме читаем и пишем здесь: ---> Отзывы и комментарии о схеме

Новые благодарочки в телеграм довольных пользователей:
скриншот   скриншот   скриншот   скриншот   скриншот

07-08-2019 22:35 Мстители: Финал Скачать торрент  

Это хорошо, что вы публикуете фильмы в формате HEVC 10bit

Мой TV ANDROID BOX не поддерживает 12 bit

Спасибо большоеpiratbit.gq



08-08-2019 14:40 Мстители: Финал Скачать торрент  

автору спасибо за раздачу. но фильм лютое говно. сопли весь фильм. мелодрама сплошная.piratbit.gq



12-08-2019 18:32 Мстители: Финал Скачать торрент  

Подскажите какой плеер нормально читает этот формат,а то я скачал а посмотреть без лагов не могу*(piratbit.gq



14-08-2019 15:05 Мстители: Финал Скачать торрент  

Daumpiratbit.gq



14-08-2019 19:47 Мстители: Финал Скачать торрент  

Ayer писал(а):

Подскажите какой плеер нормально читает этот формат,а то я скачал а посмотреть без лагов не могу*(

На Windows с MPC-HC с мощным компьютером для воспроизведения HEVC без проблем.

В ANDROID BOX TV я рекомендую использовать KODI v18.1 и MX Playerpiratbit.gq



18-08-2019 13:12 Мстители: Финал Скачать торрент  

Шикарная работа автора рипа! Так держать!piratbit.gq



    Дорогой пользователь! Огромная просьба, поблагодарите релизера, оцените раздачу и оставьте свои комментарий, если Вы скачали Мстители: Финал через торрент бесплатно! Внесите свою лепту в развитие PiratBit!
    Комментировать посты могут только пользователи прошедшие не сложную регистрацию
    Показать сообщения:    

    Мстители: Финал через торрент
    Скачать бесплатно Мстители: Финал
    Мстители: Финал скачать торрент
    Мстители: Финал смотреть онлайн
    Cкачать фильм Мстители: Финал бесплатно
    Мстители: Финал скачать торрент в хорошем качестве
    Мстители: Финал смотреть онлайн бесплатно в хорошем качестве


    Вы не можете начинать темы
    Вы не можете отвечать на сообщения
    Вы не можете редактировать свои сообщения
    Вы не можете удалять свои сообщения
    Вы не можете голосовать в опросах
    Вы не можете прикреплять файлы к сообщениям
    Вы можете скачивать файлы