MEGA SALE -50% FORZA HORIZON 4 ULTIMATE+ВСЕ DLC+ОНЛАЙН всего за 599р. 299 руб. (супер цена). Внимание количество ограничено!!!

iTunes

1+1

iTunes

мы

iTunes

1

iTunes

Чернобыль

iTunes

Ральф против интернета

Лицензия

ПШазам

Лицензия

Игра престолов

Лицензия

30
pack

ВАЖНО

!!Акция!!

Alien_RageХит недели

RePack

Resident Evil 21

ИГРА 18+

pack

RePack

Metro:Exodus

!!Акция!!

Alien_Rage

RePack

fifa19

RePack

Assassins Creed: Odyssey

RePack

NEED FOR SPEED™ PAYBACK

3 сезон

9 сезон

Бесстыжие 9 сезон

Все сериалы

все сериалы на PB.wtf

RePack

FAR CRY 5
Ребята, катастрофически не хватает 7730р. для оплаты серверов за АВГУСТ (всвязи с блокировками трафик упал в 3 раза), 1-2р., выручайте.
  

Берлинское дело / Bereullin (Рю Сын-ван) [2013, боевик, триллер, BDRip 1080p by msltel] VO piratbit.gq

Берлинское дело через торрент piratbit.gq

Раздают: 1 [ 0 KB/s ]
Размер: 11.63 GB | Добавлен: 17 д. назад | Торрент скачан:2 раза
Скачать  

30-08-2019 05:18 Берлинское дело Скачать торрент  

Название: Берлинское дело
Оригинальное название: Bereullin
Год выпуска: 2013
Страна: Корея Южная
Жанр: боевик, триллер
Продолжительность: 02:00:52
Перевод: закадровый одноголосый

Режиссер: Рю Сын-ван
В ролях: Чон У Ха, Джианна Чон, Джон Кеог, Сок Кю Хан, Сын Бом Рю, Кён Ён Ли, Со Хён Ким (II), Чон Бин Юн, До Вон Квак, Нуман Аджар, Тайфун Бадемсой, Вернер Даен, Му Сон Чхве, Чжи Хван Пак

О фильме: Во время сделки по продаже оружия в Берлине южнокорейская разведка раскрывает северокорейского шпиона. Ему удаётся сбежать, но задание провалено, и компартия уже выслала за ним киллера...



Качество: BDRip 1080p
Формат: MKV
Видео: MPEG-4 AVC, 12.1 Mбит/с, 1920x816
Аудио 1: русский, AC3, 192 kbps, 2 ch, 48 kHz [закадровый одноголосый, den904 по переводу chup]
Аудио 2: корейский, DTS, 1509 kbps, 6 ch, 48 kHz [оригинал]
Субтитры 1: русские
Субтитры 2: английские
Главы/чаптеры
Общее
Уникальный идентификатор : 189662327971810446399767086309022058073 (0x8EAFA2BBAEC36669AB9B4D71F2EF4659)
Полное имя : D:\Video\Берлинское дело.2013.BDRip 1080p by msltel.mkv
Формат : Matroska
Версия формата : Version 4
Размер файла : 11,6 Гбайт
Продолжительность : 2 ч. 0 м.
Общий поток : 13,8 Мбит/сек
Название фильма : Rip by msltel
Дата кодирования : UTC 2019-08-30 01:59:28
Программа кодирования : mkvmerge v8.2.0 ('World of Adventure') 64bit
Библиотека кодирования : libebml v1.3.1 + libmatroska v1.4.2

Видео
Идентификатор : 1
Формат : AVC
Формат/Информация : Advanced Video Codec
Профиль формата : High@L4.1
Настройки формата : CABAC / 4 Ref Frames
Параметр CABAC формата : Да
Параметр RefFrames формата : 4 кадра
Идентификатор кодека : V_MPEG4/ISO/AVC
Продолжительность : 2 ч. 0 м.
Битрейт : 12,1 Мбит/сек
Ширина : 1920 пикселей
Высота : 816 пикселей
Соотношение сторон : 2,35:1
Режим частоты кадров : Постоянный
Частота кадров : 23,976 (24000/1001) кадра/сек
Цветовое пространство : YUV
Субдискретизация насыщенности : 4:2:0
Битовая глубина : 8 бит
Тип развёртки : Прогрессивная
Бит/(Пиксели*Кадры) : 0.322
Размер потока : 10,2 Гбайт (88%)
Библиотека кодирования : x264 core 157 r2935 545de2f
Настройки программы : cabac=1 / ref=4 / deblock=1:-2:-2 / analyse=0x3:0x113 / me=umh / subme=11 / psy=1 / psy_rd=1.00:0.15 / mixed_ref=1 / me_range=32 / chroma_me=1 / trellis=2 / 8x8dct=1 / cqm=0 / deadzone=21,11 / fast_pskip=0 / chroma_qp_offset=-3 / threads=6 / lookahead_threads=1 / sliced_threads=0 / nr=0 / decimate=1 / interlaced=0 / bluray_compat=0 / constrained_intra=0 / bframes=9 / b_pyramid=2 / b_adapt=2 / b_bias=0 / direct=1 / weightb=1 / open_gop=0 / weightp=2 / keyint=230 / keyint_min=23 / scenecut=40 / intra_refresh=0 / rc_lookahead=40 / rc=crf / mbtree=1 / crf=16.8 / qcomp=0.60 / qpmin=0 / qpmax=69 / qpstep=4 / vbv_maxrate=50000 / vbv_bufsize=62500 / crf_max=0.0 / nal_hrd=none / filler=0 / ip_ratio=1.40 / aq=1:1.00
Язык : Korean
Default : Да
Forced : Нет

Аудио #1
Идентификатор : 2
Формат : AC-3
Формат/Информация : Audio Coding 3
Коммерческое название : Dolby Digital
Идентификатор кодека : A_AC3
Продолжительность : 2 ч. 0 м.
Вид битрейта : Постоянный
Битрейт : 192 Кбит/сек
Каналы : 2 канала
ChannelLayout : L R
Частота : 48,0 КГц
Частота кадров : 31,250 кадров/сек (1536 SPF)
Битовая глубина : 16 бит
Метод сжатия : С потерями
Размер потока : 166 Мбайт (1%)
Заголовок : den904 по переводу chup
Язык : Russian
ServiceKind/String : Complete Main
Default : Да
Forced : Нет

Аудио #2
Идентификатор : 3
Формат : DTS
Формат/Информация : Digital Theater Systems
Идентификатор кодека : A_DTS
Продолжительность : 2 ч. 0 м.
Вид битрейта : Постоянный
Битрейт : 1509 Кбит/сек
Каналы : 6 каналов
ChannelLayout : C L R Ls Rs LFE
Частота : 48,0 КГц
Частота кадров : 93,750 кадра/сек (512 SPF)
Битовая глубина : 16 бит
Метод сжатия : С потерями
Размер потока : 1,27 Гбайт (11%)
Заголовок : original
Язык : Korean
Default : Нет
Forced : Нет

Текст #1
Идентификатор : 4
Формат : UTF-8
Идентификатор кодека : S_TEXT/UTF8
Идентификатор кодека/Информация : UTF-8 Plain Text
Продолжительность : 1 ч. 53 м.
Битрейт : 67 бит/сек
ElementCount : 944
Размер потока : 56,0 Кбайт (0%)
Заголовок : русские
Язык : Russian
Default : Нет
Forced : Нет

Текст #2
Идентификатор : 5
Формат : UTF-8
Идентификатор кодека : S_TEXT/UTF8
Идентификатор кодека/Информация : UTF-8 Plain Text
Продолжительность : 1 ч. 53 м.
Битрейт : 38 бит/сек
ElementCount : 954
Размер потока : 32,3 Кбайт (0%)
Заголовок : английские
Язык : English
Default : Нет
Forced : Нет

Меню
00:00:00.000 : en:00:00:00.000
00:07:03.923 : en:00:07:03.923
00:14:15.146 : en:00:14:15.146
00:24:02.733 : en:00:24:02.733
00:36:21.513 : en:00:36:21.513
00:47:25.509 : en:00:47:25.509
00:59:56.802 : en:00:59:56.802
01:08:23.016 : en:01:08:23.016
01:18:03.512 : en:01:18:03.512
01:26:47.327 : en:01:26:47.327
01:42:26.724 : en:01:42:26.724
01:57:24.579 : en:01:57:24.579
piratbit.gq



Скачать Берлинское дело через торрент https://c.radikal.ru/c01/1908/2b/c5b65eaa7acd.jpg Скачать фильм Берлинское дело через торрент бесплантно в хорошем качестве О фильме: Во время сделки по продаже оружия в Берлине южнокорейская разведка раскрывает северокорейского шпиона. Ему удаётся сбежать, но ... 10 10 1
Торрент: Зарегистрирован [2019-08-30 05:18] · скачан: 2 раз
Статус: √ проверено
Размер: 11.63 GB
Как cкачать? Как скачать Берлинское дело через торрент | qTorrent

% Раздел Тема Автор DL S | L
Азиатские фильмы [ 3.91 GB ] Берлинское дело / Bereullin [2013 BDRip 720p by msltel] VO msltel Скачать
3 | 0


>> Регистрируемся здесь <<






Отзывы и комментарии о схеме читаем и пишем здесь: ---> Отзывы и комментарии о схеме

Новые благодарочки в телеграм довольных пользователей:
скриншот   скриншот   скриншот   скриншот   скриншот
    Дорогой пользователь! Огромная просьба, поблагодарите релизера, оцените раздачу и оставьте свои комментарий, если Вы скачали Берлинское дело через торрент бесплатно! Внесите свою лепту в развитие PiratBit!
    Комментировать посты могут только пользователи прошедшие не сложную регистрацию
    Показать сообщения:    

    Берлинское дело через торрент
    Скачать бесплатно Берлинское дело
    Берлинское дело скачать торрент
    Берлинское дело смотреть онлайн
    Cкачать фильм Берлинское дело бесплатно
    Берлинское дело скачать торрент в хорошем качестве
    Берлинское дело смотреть онлайн бесплатно в хорошем качестве


    Вы не можете начинать темы
    Вы не можете отвечать на сообщения
    Вы не можете редактировать свои сообщения
    Вы не можете удалять свои сообщения
    Вы не можете голосовать в опросах
    Вы не можете прикреплять файлы к сообщениям
    Вы можете скачивать файлы